#TITLE:E.P.M.;
#SUBTITLE:Ultra Beatdown;
#ARTIST:DragonForce;
#TITLETRANSLIT:;
#SUBTITLETRANSLIT:;
#ARTISTTRANSLIT:;
#CREDIT:;
#BANNER:e.p.m.-bn.jpg;
#BACKGROUND:e.p.m.-bg.jpg;
#LYRICSPATH:;
#CDTITLE:Huzure-cdtitle.png;
#MUSIC:DragonForce - E.P.M..mp3;
#OFFSET:-0.585;
#SAMPLESTART:119.180;
#SAMPLELENGTH:11.480;
#SELECTABLE:YES;
#BPMS:0.000=145.000,48.000=147.500,51.000=151.000,56.000=156.000,60.000=190.000,1308.000=380.000,1312.000=190.000;
#STOPS:1308.500=0.158
,1309.500=0.158
,1310.500=0.158
,1311.500=0.158
;
#BGCHANGES:;
// cache tags:
#FIRSTBEAT:0.000;
#LASTBEAT:1379.875;
#SONGFILENAME:Songs/Music V.I.P ^_^/E.P.M (Huzure)/DragonForce - E.P.M..sm;
#HASMUSIC:1;
#HASBANNER:1;
#MUSICLENGTH:444.048;
// end cache tags

//---------------dance-single - Extreme Power Metal----------------
#NOTES:
     dance-single:
     Extreme Power Metal:
     Hard:
     13:
     1.000,1.000,0.838,0.547,1.000,3619.000,372.000,243.000,0.000,0.000:
0001
0000
0001
0010
0100
0000
0010
0000
1000
0100
0010
0001
0010
0100
1000
0100
,
0010
0000
0001
1000
0001
0000
0100
0000
1000
0100
0010
0001
0010
0100
1000
0100
,
0010
0000
1000
0001
0010
0000
0001
0000
0001
0010
0100
0010
0100
1000
0100
0010
,
0001
0010
0000
0000
0010
0100
0000
0000
0100
0010
0000
0000
0100
1000
0000
0000
,
0010
1000
0001
0200
0300
0001
0100
2000
,
3000
0100
0001
0020
0030
0010
0100
1000
,
0010
1000
0001
0200
0300
0001
0100
2000
,
3000
0100
0001
0020
0030
0010
0100
1000
,
0010
1000
0001
0200
0300
0001
0100
2000
,
3000
0100
0001
0020
0030
0010
0100
1000
,
0010
1000
0001
0200
0300
0001
0100
1000
,
0100
0010
0001
0010
1000
0010
0001
0100
,
0110
0000
0000
0002
,
0000
0000
0000
0000
,
2000
0000
0000
0000
0000
0000
0000
3003
,
0010
0000
0010
0200
0000
0300
0100
0020
,
0000
0000
0030
0000
0010
0000
0002
0000
0000
0003
1000
0000
0100
0000
0010
0000
,
0010
0000
0010
0200
0000
0300
0100
0020
,
0000
0000
0030
0000
0010
0000
0002
0000
0000
0003
0001
0010
0100
0010
0100
1000
,
0010
0000
0010
0200
0000
0300
0100
0020
,
0000
0000
0030
0000
0010
0000
0002
0000
0000
0003
0010
0000
1000
0000
0100
0000
,
1000
0100
1000
0010
1000
0001
1000
0001
,
0001
0010
0001
0010
0100
0010
0100
1000
0002
0000
0000
0000
0000
0000
0003
0000
,
0001
0001
1000
1000
0001
0001
1000
0100
1000
0100
1000
0100
1000
1000
0010
0010
,
0001
0010
0001
0010
0001
0001
0100
0100
0010
0001
0010
0001
0100
1000
0100
1000
,
0001
0001
1000
1000
0001
0001
1000
0100
1000
0100
1000
0100
1000
1000
0010
0010
,
0001
0010
0001
0010
0001
0001
0100
0100
0010
0001
0010
0001
0100
1000
0100
1000
,
0100
0010
1000
0100
0010
1000
0100
0010
0100
0010
0001
1000
0100
0010
0100
0010
,
0001
0010
0000
0010
0001
0000
0100
0000
0010
0000
0100
0000
0002
0000
0003
0000
,
1000
1000
0010
0010
0100
0100
0001
0001
0100
0100
0010
0010
0001
0001
0010
0010
,
1000
0001
1000
0001
1000
0010
1000
0010
1000
0100
1000
0100
1000
0010
1000
0010
,
1001
0000
0000
0000
,
1000
0100
1010
0101
1010
0101
1010
0101
1000
0100
1010
0101
1010
0101
1010
0101
,
0010
0010
1000
1000
0100
0100
1000
1000
,
0001
0001
0100
0100
0101
0101
0110
0110
,
0101
0010
1000
1000
0100
0100
1000
1000
,
0001
0001
0100
0100
0001
0001
0010
0101
,
1010
0010
1000
1000
0100
0100
1000
1000
,
0001
0001
0100
0100
0101
0101
0110
0110
,
0101
0010
1000
1000
0100
0100
1000
1000
,
0001
0001
1010
0000
0110
0000
0101
0000
,
1000
0100
0010
0100
0010
0100
0010
0100
0010
0100
0010
0100
0010
0100
0001
0100
,
0010
0100
0001
0100
0010
0100
0010
0100
0010
0001
0010
0000
1100
0000
0110
0000
,
0001
0010
0100
1000
0100
1000
0100
1000
0100
1000
0100
1000
0100
1000
0010
1000
,
0100
1000
0010
1000
0100
1000
0100
1000
0100
0010
0001
0000
0011
0000
1010
0000
,
1000
0001
0100
0001
1000
0001
1000
0010
1000
0001
1000
0001
0100
0001
1000
0001
,
1000
0010
1000
0001
1000
0001
0100
0001
1000
0010
0100
0000
0110
0000
0011
0000
,
0001
0010
0100
1000
0001
0010
0100
1000
0001
0010
0100
1000
0001
0010
0100
1000
,
1001
1001
1001
1001
,
0101
0000
0110
0000
0100
1000
0100
0010
0001
0100
1000
0100
0010
0001
1000
0001
,
0100
0001
1000
0010
1000
0100
1000
0001
0010
0001
0010
1000
0010
0100
0001
1000
,
0010
0100
0001
0010
0001
0100
0010
0100
0001
1000
0001
0010
1000
0100
0010
0001
,
0100
0001
0100
1000
0100
0010
0001
0010
0100
1000
0001
0100
1000
0100
0001
0010
,
0100
0010
0100
1000
0100
0001
0010
0001
0100
0001
0010
0100
1000
0100
0010
0001
,
0010
0001
0100
1000
0010
0100
0001
0010
0100
0010
1000
0100
1000
0010
0001
0100
,
1000
0100
0010
1000
0100
0010
0100
0010
0001
0100
0010
0001
0010
0100
1000
0100
,
0010
0001
0010
0001
0010
0001
0010
0001
0010
0001
0010
0001
0010
0001
0010
0001
,
0010
0100
1000
0100
1000
0010
0001
0100
0010
0100
1000
0100
0001
0100
0010
1000
,
0010
0100
1000
0010
0100
0001
0100
0010
1000
0010
1000
0001
0010
0100
0010
1000
,
0011
0000
0110
0000
0001
0010
0001
0000
1010
0000
1100
0000
0010
1000
0010
0000
,
1001
0000
1001
0000
0010
0100
0010
0000
1001
0000
1100
0000
0010
1000
0010
0000
,
0010
0001
0010
0001
0100
1000
0001
0010
1000
0100
0010
0100
0010
0100
1000
0100
,
0010
0001
0010
0001
0010
0100
1000
0100
0010
0001
0010
0001
0010
0100
1000
0001
,
1100
0000
1010
0000
0001
0100
0001
0000
1010
0000
1001
0000
0100
1000
0100
0000
,
0110
0000
0110
0000
0001
0100
0001
0100
0001
0010
1100
0000
1100
0000
0000
0000
,
1000
0001
1000
1000
0010
1000
1000
0001
,
0001
1000
1000
0001
1000
1000
0010
0010
,
1000
1000
1000
0100
1000
1000
1000
0001
,
1000
1000
1000
0010
0010
1000
1000
1000
,
0010
0100
0001
0001
0100
0001
0100
0001
,
0100
0100
0001
0100
0001
0100
0001
0000
,
0220
0000
0000
0000
0000
0000
0000
0330
,
0110
0110
0000
1001
0110
1001
0110
0000
,
0011
0000
1000
0100
0010
0001
0010
0100
1000
0000
0000
0000
1100
0000
0000
0000
,
1100
0000
0110
0000
0110
0010
0011
0000
,
1001
0000
0110
0001
1010
0100
0011
0000
,
0011
0010
0011
0000
1001
0010
1100
0010
,
0101
0000
1001
0010
1001
0100
1001
0000
,
0011
0100
0011
0000
0011
1000
0011
0000
,
1010
0000
0110
0001
0110
0100
1100
0000
,
1100
0010
0001
0010
0001
0010
1100
0010
0001
0010
0001
0010
1100
0010
0001
0010
,
1100
0000
0011
0010
1010
0100
1001
0000
,
0110
0000
0011
0010
0110
0100
1100
0000
,
0110
0000
1100
0100
0110
0010
0011
0000
,
0101
0000
0101
0010
1010
0100
1001
0000
,
1001
0000
0101
0010
1010
0100
1001
0000
,
1100
0000
1100
0010
0110
0001
0011
0001
,
0100
0100
0100
0100
0100
0100
0100
0100
,
0110
0000
0000
0000
0010
0001
0010
0001
0100
1000
0100
1000
0010
0100
0010
0100
,
0010
0001
0010
0100
0001
0010
0100
1000
0100
1000
0010
0100
0010
0001
0010
0100
,
0010
0100
0010
1000
0100
0010
0001
0010
0100
0001
0010
0001
0100
0010
0100
1000
,
0100
0010
0001
0010
0001
0010
0100
1000
0100
0010
0100
0010
0001
0010
0001
0010
,
2020
0000
0000
0000
0000
0000
0000
0000
3030
0000
1001
0110
1001
0110
1001
0110
,
1001
0100
0010
0001
0010
0001
0100
0001
0010
0100
1000
0100
0001
0100
0010
0100
,
0001
1000
0010
0100
0001
0010
0100
1000
0100
0001
0010
0001
0100
0001
1000
0010
,
0100
0010
0001
0100
0010
0001
1000
0100
0010
1000
0100
0010
0100
0010
0001
0100
,
0010
0001
1000
0100
0010
1000
0100
0010
0001
0010
0100
1000
0200
0300
0020
0030
,
0001
0010
0100
0010
0001
1000
0100
1000
0010
0100
0010
0001
0010
0001
0010
0100
,
0010
1000
0100
1000
0100
0010
0100
0001
0010
0001
0100
0010
0001
0010
0100
0010
,
0100
0001
0010
0100
0010
0001
0010
0100
1000
0100
0010
0100
0010
0001
0010
0100
,
2000
3000
0200
0300
0020
0030
0002
0003
,
2200
0000
0000
0000
0000
0000
0000
3300
,
0202
0000
0000
0000
0000
0000
0000
0303
,
1000
0100
1000
0100
0001
0000
0010
0000
0100
1000
0100
1000
0010
0000
0001
0000
,
1001
0001
1001
0010
1001
0100
1001
0100
,
0200
0000
0000
0000
0300
0000
0020
0000
0000
0000
0030
0000
0020
0000
0000
0030
,
0020
0000
0000
0000
0030
0000
0002
0000
0000
0000
0003
0000
0002
0000
0000
0003
,
0020
0000
0000
0000
0030
0000
0200
0000
0000
0000
0300
0000
2000
0000
0000
3000
,
0200
0000
0300
0020
0000
0030
0001
0010
,
0200
0000
0300
0200
0000
0300
1000
0010
,
0002
0000
0000
0000
0003
0000
0020
0000
0000
0000
0030
0000
0020
0000
0000
0030
,
0200
0000
0000
0000
0300
0000
0200
0000
0000
0000
0300
0000
2000
0000
0000
3000
,
0020
0000
0000
0000
0030
0000
0002
0000
0000
0000
0003
0000
0020
0000
0000
0030
,
1000
0100
0010
0001
0010
0001
0010
0100
1000
0100
0010
0001
0010
0100
0010
0001
,
0010
0001
0010
0001
0010
0100
1000
0100
0010
0001
0010
0100
1000
0100
1000
0100
,
0010
0001
0010
0100
1000
0100
0010
0100
0010
0100
0010
0001
0010
0100
1000
0100
,
0010
0001
0010
0001
0010
0100
1000
0100
0010
0100
0010
0001
0010
0100
0010
0001
,
0010
0001
0010
0100
1000
0100
1000
0100
0010
0001
0010
0100
1000
0100
0010
0001
,
0010
0001
0010
0100
1000
0100
0010
0001
0010
0100
1000
0100
0010
0100
0010
0100
,
1000
0100
0010
0001
0010
0100
0010
0001
0010
0100
1000
0100
0010
0100
1000
0100
,
0011
0000
0110
0000
1010
0000
1001
0000
0101
0000
0011
0000
,
0110
0000
0001
0010
0100
1000
0100
0000
0110
0000
0010
0100
1000
0100
0010
0000
,
0001
0010
0101
0000
0010
0100
1010
0000
1000
0010
0101
0000
0001
0000
0001
0000
,
0202
0000
0303
0000
0001
0010
0001
0000
1000
0100
1000
0000
0100
0000
0010
0000
,
0100
0010
1001
0000
0010
0100
1001
0000
0001
0000
0001
0000
0001
0000
0100
0000
,
1010
0000
0100
0010
0001
0010
0100
0010
0100
1000
0100
0010
0100
0010
0100
0010
,
0001
0010
0001
0010
0100
0010
0100
1000
0100
0010
0100
0010
0001
0010
0001
0010
,
2200
0000
0000
0000
0000
0000
0000
3300
,
0022
0000
0000
0000
0000
0000
0000
0033
,
0001
0010
0100
0010
0001
0010
0100
1000
0110
0000
0001
0010
0001
0010
0100
0010
,
1100
0000
0100
0010
0001
0010
0001
0010
0101
0000
0100
0010
0100
1000
0100
0010
,
1001
0000
0010
0001
0010
0100
0010
0001
0110
0000
0100
0010
0100
1000
0100
0010
,
0101
0000
1000
0100
0010
0001
0010
0100
1001
0000
1001
0000
0010
0010
0010
0010
,
0011
0000
0100
0010
0001
0010
0100
1000
0110
0000
1000
0100
1000
0100
0010
0100
,
0011
0000
0001
0010
0100
0010
0100
1000
0101
0000
0001
0010
0001
0010
0100
0010
,
1000
0100
0010
0001
1000
0100
0010
0001
1000
0100
0010
0001
1000
0100
0010
0001
,
1010
0000
1010
0000
0010
0100
1000
0100
0011
0000
0011
0000
0010
0001
0010
0100
,
1000
0010
1000
0001
1000
0100
1000
0001
,
1000
0010
1000
0100
1000
0001
1000
0100
,
1001
1001
1001
1001
1001
1001
1001
1001
,
1001
1001
1001
1001
1001
1001
1001
1001
,
1001
0010
1000
0100
1000
0001
1000
0010
,
1000
0001
1000
0100
1000
0010
1000
0100
,
0110
0110
0110
0110
0110
0110
0110
0110
,
0100
0010
0100
0010
0100
0010
0100
0010
0100
0010
0100
0010
0100
0010
0100
0010
,
0100
0001
0100
0100
0010
0100
0100
0001
,
0001
0100
0100
0001
0100
0100
0010
0010
,
1000
1000
1000
0010
1000
1000
1000
0100
,
1000
1000
1000
0100
0100
1000
1000
1000
,
0010
0100
0001
0001
0100
0001
0100
0001
,
0100
0100
0001
0100
0001
0100
0001
0000
,
0220
0000
0000
0000
0000
0000
0000
0330
,
0202
0000
0000
0000
0000
0000
0000
0303
,
0100
0100
0010
0100
0100
0100
0002
0000
,
0000
0003
0100
0100
0020
0000
0000
0030
,
1000
1000
1000
0100
1000
1000
0020
0000
,
0000
0030
0100
0010
0001
0001
0001
0010
,
0100
0100
0100
0020
0000
0030
0100
0100
,
0100
0020
0000
0030
0100
0100
0010
0000
,
0100
0100
0100
0001
0100
0100
0100
0100
,
0101
0101
0110
0110
1100
1100
0110
0110
,
1100
0000
1000
0100
1000
0100
1000
0100
1001
0100
1000
0100
1000
0100
1000
0100
,
1001
0100
1000
0100
1000
0100
1000
0100
1000
0100
1000
0100
1000
0100
1000
0100
,
1001
0000
0100
0010
0100
0010
0100
0010
1100
0010
0100
0010
0100
0010
0100
0010
,
1100
0010
0100
0010
0100
0010
0100
0010
0100
0010
0100
0010
0100
0010
0100
0010
,
0101
0000
0001
0010
0001
0010
0001
0010
0101
0010
0001
0010
0001
0010
0001
0010
,
0101
0010
0001
0010
0001
0010
0001
0010
0001
0010
0001
0010
0001
0010
0001
0010
,
0100
0010
0001
0000
1000
0100
0010
0000
0100
0010
0001
0000
1000
0100
0010
0000
,
0220
0000
0000
0000
0000
0000
0000
0330
,
0100
1000
0100
0010
1000
0100
0010
0001
0010
0001
0100
0010
0100
1000
0100
0010
,
0100
0010
0100
0001
0010
0100
1000
0100
0010
1000
0100
1000
0010
0100
0010
0001
,
0010
0100
1000
0100
1000
0100
0010
0001
0010
0100
0010
0100
1000
0100
1000
0100
,
2020
0000
0000
0000
0000
0000
0000
0000
3030
0000
0101
1010
0101
1010
0101
1010
,
0101
0010
0100
1000
0100
1000
0010
1000
0100
0010
0001
0010
1000
0010
0100
0010
,
1000
0001
0100
0010
1000
0100
0010
0001
0010
1000
0100
1000
0010
1000
0001
0100
,
0010
0100
1000
0010
0100
1000
0001
0010
0100
0001
0010
0100
0010
0100
1000
0010
,
0100
1000
0100
0010
0001
0010
0100
1000
0100
0010
0001
0010
0100
1000
0100
0010
,
0001
0010
0100
0010
0100
1000
0100
0010
0100
0010
0100
1000
0100
1000
0100
0010
,
0100
0001
0010
0001
0010
0100
0010
1000
0100
1000
0010
0100
1000
0100
0010
0100
,
0010
1000
0100
0010
0100
1000
0100
0010
0001
0010
0100
0010
0100
1000
0100
0010
,
0002
0003
0020
0030
0200
0300
2000
3000
,
0022
0000
0000
0000
0000
0000
0000
0033
,
2020
0000
0000
0000
0000
0000
0000
3030
,
0001
0010
0001
0010
1000
0000
0100
0000
0010
0001
0010
0001
0100
0000
1000
0000
,
1001
1000
1001
0100
1001
0010
1001
0010
,
0200
0000
0000
0000
0300
0000
0020
0000
0000
0000
0030
0000
0020
0000
0000
0030
,
0020
0000
0000
0000
0030
0000
0002
0000
0000
0000
0003
0000
0002
0000
0000
0003
,
0020
0000
0000
0000
0030
0000
0200
0000
0000
0000
0300
0000
2000
0000
0000
3000
,
0200
0000
0300
0020
0000
0030
0001
0010
,
0200
0000
0300
0200
0000
0300
1000
0010
,
0002
0000
0000
0000
0003
0000
0020
0000
0000
0000
0030
0000
0020
0000
0000
0030
,
0200
0000
0000
0000
0300
0000
0200
0000
0000
0000
0300
0000
2000
0000
0000
3000
,
0020
0000
0000
0000
0030
0000
0002
0000
0000
0000
0003
0000
0020
0000
0000
0030
,
0001
0010
0100
0010
0001
0010
0100
0010
0001
0010
1000
0010
0100
0010
0001
0010
,
0100
0001
0010
0100
0001
0010
0100
1000
0100
0010
0100
0001
0100
0010
1000
0010
,
1000
1000
1000
1000
0001
1000
1000
1000
1000
1000
0010
1000
1000
1000
1000
1000
,
0010
0010
0001
0001
0010
0010
0001
0001
0100
0100
0010
0010
0100
0100
0010
0010
,
0100
1000
0010
0100
0001
0100
0010
0100
1000
0100
0001
0100
0010
0100
1000
0100
,
1000
0100
0010
0010
0001
0001
0001
0010
0100
0001
0010
1000
0001
0010
0100
0001
,
0010
0000
0000
1000
0000
0000
0001
0000
0000
0010
0000
0000
0100
0000
0000
1000
0000
0000
1000
0000
0000
1000
0000
0000
0100
0000
0010
0000
0001
0000
0010
0000
0100
0000
1000
0000
0100
0000
1000
0000
0100
0000
1000
0000
0100
0000
1000
0000
,
0100
0010
0100
0000
0100
0000
0220
0330
,
1002
0000
0003
0220
0000
0330
1001
0000
,
0210
0000
0300
0220
0000
0330
0110
0000
,
0101
1020
0000
0000
0030
0000
2002
0000
0000
0000
3003
0000
0101
0000
0000
0000
,
0120
0000
0030
2002
0000
3003
0110
0000
,
0002
1003
0001
0100
0001
0010
0001
1000
,
0001
0010
0001
0100
0001
1000
0001
0100
,
0020
0000
0000
0000
0000
0000
0000
0030
,
0201
0001
0001
0001
0000
0001
0010
0310
,
1001
0000
0000
0000
0000
1100
1100
1100
,
1010
1010
1010
1010
1010
1001
1010
1001
,
1010
0000
0000
0000
0000
1010
0101
0000
,
0101
1010
0000
1100
0101
0000
0001
0010
,
0100
0000
0000
0000
0000
1100
1100
1100
,
1010
1010
1010
1010
1010
1001
1010
1001
,
1010
0000
0000
0000
0000
1010
0101
0000
,
0101
1010
0000
1100
0101
0000
0001
0010
,
0100
0010
0000
0000
0010
0000
0000
0000
0010
0200
0000
0000
0300
0000
0000
0000
,
0100
1000
0000
0000
0100
0000
0000
0000
0100
0020
0000
0000
0030
0000
0000
0000
,
0100
1000
0000
0000
1000
0000
0000
0000
0100
0000
0000
0000
0010
0000
0001
0000
,
2002
0000
0000
3003
0001
0010
0100
0010
,
0100
0010
0000
0000
0010
0000
0000
0000
0010
0200
0000
0000
0300
0000
0000
0000
,
0100
1000
0000
0000
0100
0000
0000
0000
0100
0020
0000
0000
0030
0000
0000
0000
,
0100
1000
0000
0000
1000
0000
0000
0000
0100
0000
0000
0000
0010
0000
0001
0000
,
2002
0000
0000
0000
0000
0000
0000
3003
,
1001
0010
0001
0010
0100
1000
0100
0010
,
0001
0010
0001
0010
0100
1000
0100
0010
,
0001
0010
0001
0010
0100
1000
0100
0010
,
0001
0010
0001
0010
0100
1000
0100
1000
,
1001
0100
1000
0100
0010
0001
0010
0100
,
1000
0100
1000
0100
0010
0001
0010
0100
,
1000
0100
1000
0100
0010
0001
0010
0100
,
1000
0100
1000
0100
0010
0001
0010
0001
,
1001
0010
0001
0010
0001
0010
0100
1000
,
1000
0100
1000
0100
1000
0100
0010
0001
,
0001
0010
0001
0010
0001
0010
0100
1000
,
1000
0100
1000
0100
1000
0100
0010
0001
,
1001
0010
0001
0010
0001
0010
0100
1000
,
1000
0100
1000
0100
1000
0100
0010
0001
,
0001
0010
0001
0010
0001
0010
0100
1000
,
1100
1100
1100
1100
1100
1100
1100
1100
,
1000
0100
0010
0001
0010
0100
1000
0100
0010
0001
0010
0100
1000
0100
0010
0001
,
0010
0100
1000
0100
0010
0001
0010
0100
1000
0100
0010
0001
0010
0100
1000
0100
,
0010
0001
0010
0100
1000
0100
0010
0001
0010
0100
1000
0100
0010
0000
0000
0000
,
0002
0203
0302
0203
0302
0203
0302
0203
,
0000
0000
0000
0310
0000
0000
0010
0000
0000
0100
0000
0000
0100
0001
0100
0001
0100
0001
0100
0010
0100
0010
0100
0010
,
1000
0100
0010
0001
0010
0100
0010
0001
0010
0100
0010
0100
0010
0001
0010
0001
,
0010
0100
1000
0010
0100
1000
0001
0010
0100
1000
0001
0010
0100
1000
0100
1000
,
0001
0000
1000
0000
0001
0000
0100
0000
0001
0000
0010
0000
1000
0100
0010
0001
,
0010
0100
1000
0100
0010
0100
0010
0100
1000
0100
1000
0100
1000
0100
0010
0001
,
0100
0010
0001
0100
0010
0001
0100
0010
0001
1000
0100
0010
1000
0100
1000
0100
,
1000
0100
0010
0001
1000
0100
0010
0001
1000
0100
0010
0001
1001
0000
0000
0000
,
0001
0100
0001
0100
0001
0100
0001
0100
0001
0100
0001
0100
1000
0001
1000
0001
1000
0001
1000
0001
1000
0001
1000
0001
,
1000
0001
1000
0001
1000
0010
1000
0010
1000
0100
1000
0100
1000
0001
1000
0001
1000
0010
1000
0010
1000
0100
1000
0100
,
1000
0001
0010
0100
0001
0010
0100
0010
0100
1000
0010
0100
0010
0100
0010
0100
,
1000
0000
0000
0010
0000
0000
0001
0000
0001
0000
0001
0000
0001
0000
0001
0000
0010
0000
0100
0000
0010
0000
0100
0000
0010
0000
0100
0000
0010
0000
0100
0000
0000
0000
0000
0000
0001
0000
0000
0000
0000
0000
0010
0000
0000
0000
0000
0000
,
0100
0000
0000
0001
1000
0001
1000
0001
0100
0001
0100
0001
0010
0001
0010
0001
0100
0001
0100
0001
0010
0001
0010
0001
,
1000
0001
1000
0001
1000
0010
1000
0010
1000
0100
1000
0100
1000
0010
1000
0010
1000
0100
1000
0100
1000
0010
1000
0010
,
1000
0100
0010
0001
0100
0010
0001
1000
0100
0010
0001
1000
0100
0010
0001
0010
,
1001
0010
0011
1000
0110
0100
1100
0100
,
1001
0000
0000
0001
0010
0100
1000
0100
0010
0001
0010
0100
0010
0001
0010
0100
1000
0100
0010
0001
0010
0100
1000
0100
,
0010
0100
1000
0100
0010
0001
0010
0100
0010
0001
0010
0100
0010
0001
0010
0100
1000
0100
1000
0100
0010
0100
1000
0100
,
0010
0000
1000
0100
0010
0001
0010
0100
1000
0100
0010
0100
1000
0100
0010
0001
,
0020
2030
3020
2030
3020
2030
3020
2030
3020
2030
3020
2030
3200
0302
0203
0302
0203
0302
0203
0302
0203
0302
0203
0302
,
0203
0000
0300
0010
0000
0000
0001
0000
0000
0010
0000
0000
0001
0000
0000
0010
0000
0000
0100
0000
0000
0010
0000
0000
0001
0000
0000
0010
0000
0000
0001
0000
0000
0010
0000
0000
0100
0000
0000
0010
0000
0000
0001
0000
0000
0010
0000
0000
,
0001
0020
0030
0000
1000
0200
0300
0000
0001
0020
0030
0000
1000
0200
0300
0000
,
0001
0010
0100
0010
0100
1000
0100
0010
0100
0010
0001
0010
0100
0010
0100
1000
,
0100
0010
0100
0010
0001
0010
0100
0010
0100
1000
0100
0010
0100
0010
0001
0010
,
0002
1003
0002
1003
0002
0103
0002
0103
0002
0013
0002
0013
0002
0103
0002
0103
,
0002
0013
0002
0000
0000
0000
0000
0003
0200
0000
0000
0000
0000
0300
0000
0000
,
0002
1003
0002
1003
0002
1003
0002
1003
0002
1003
0002
1003
0002
1003
0002
0103
,
0002
0000
0103
0000
0002
0000
0103
0000
0002
0000
0013
0000
0002
0000
0013
0000
0002
0000
0013
0000
0002
0000
0103
0000
0001
1000
0000
0000
0000
0000
0000
0000
,
0002
0000
0000
0000
0000
0000
0000
0003
0100
0000
0010
0000
0000
0000
0010
0000
,
0010
0001
0010
0001
0010
0001
0010
0100
0010
0100
0010
0100
1000
0100
1000
0100
1000
0100
0010
0100
0010
0100
0010
0100
,
0001
0100
1000
0001
0010
0100
1000
0100
0001
1000
0100
0010
0001
0100
1000
0001
0010
0100
1000
0100
0001
1000
0100
0010
,
0001
0000
0100
0000
1000
0000
0001
0000
0010
0000
0100
0000
1000
0000
0100
0000
0001
0000
1000
0000
0100
0000
0010
0000
0001
0000
0100
0000
1000
0000
0001
0000
0010
0000
0100
0000
1000
0000
0100
0000
0001
0000
1000
0000
0100
0000
0010
0001
,
0010
0100
0010
0100
0010
1000
0010
1000
0010
0001
0010
0001
0010
0100
0010
0100
,
0010
0000
0100
0000
0001
0000
0000
0000
0010
0100
0010
0100
0010
0200
0000
0000
,
1300
0000
1000
0010
1000
0010
1000
0010
0001
0010
0100
0010
0001
0010
0100
0010
,
0100
0010
0100
1000
0100
0010
0100
1000
0100
0010
0100
0010
0100
1000
0100
0010
,
0100
1000
0100
0010
0100
1000
0100
0010
0100
0010
0001
0010
0100
0010
0001
0010
,
0001
0010
1000
0001
0100
1000
0001
0010
1000
0001
0100
1000
0100
0010
0100
0010
,
0001
0020
0000
0000
2030
3000
0200
0300
0010
0001
0010
0001
0010
0001
0200
0000
,
0000
0300
0000
0000
0020
0000
0000
0000
0000
0000
0000
0000
0030
0000
0000
0000
,
0001
0010
0100
1000
0001
0010
0100
1000
0001
0010
0100
1000
0100
0010
0001
0100
,
0010
0000
0000
0001
0000
0000
1000
0000
0000
0100
0000
0000
0010
0000
0000
0001
0000
0000
1000
0000
0000
0100
0000
0000
1000
0000
0100
0000
0010
0000
0001
0000
0000
0000
0000
0000
0100
0000
0010
0000
0001
0000
0000
0000
0000
0000
0000
0000
,
0100
0010
0000
0000
0100
0010
0100
0010
1000
0000
0100
0000
1000
0000
0001
0000
,
1000
0000
0100
0010
0100
0010
0100
1000
0100
0010
0100
0010
0001
0000
0001
0000
,
0001
0010
0001
0010
0001
0100
0010
0100
0010
1000
0010
1000
0100
1000
0100
1000
,
0100
0010
0100
1000
0100
1000
0100
0010
0001
0000
0000
0000
0001
0010
0100
1000
,
1001
0000
0000
0000
1000
0100
0010
0001
1001
0000
0100
0010
0001
0010
0100
0010
,
0001
0010
0100
1000
0100
0010
0100
0010
0001
0010
0100
0010
0001
0010
0001
0010
,
2200
0000
3300
0022
0000
0033
1001
0000
,
2000
3020
2030
3020
2030
3020
2030
3020
2030
3020
2030
3020
0031
0000
0000
0000
,
0001
0000
0000
0000
0010
0000
0100
0000
0000
0000
1000
0000
0000
0000
0100
0010
,
0000
0000
0100
0002
0000
0000
0003
0000
0001
0010
0100
1000
1001
0000
0000
0000
,
0010
0001
0000
0000
1000
0000
0000
0000
0001
0000
0000
0000
1000
0000
0000
0000
0000
0000
0000
0010
0100
0000
0000
0000
0000
0010
0200
0000
0000
0300
0000
0000
,
0100
0010
0001
0010
1000
0100
0020
0030
,
2200
3300
0001
0001
0100
0100
0010
0010
1000
1000
0010
0010
1000
1000
0100
0100
,
0010
0000
0000
0000
0010
0000
0000
0000
0000
0000
0000
0000
0100
0000
0000
0000
0100
0000
0000
0000
0100
0010
0000
0000
0100
0002
0000
0000
0000
0000
0000
0000
,
1003
0010
0100
0010
0100
0010
1000
0010
0100
0010
0100
0010
1000
0010
1000
0010
,
1000
0001
0100
0001
0100
0001
1000
0001
0100
0001
0100
0001
1000
0001
1000
0001
,
0010
0100
0010
0100
0010
0100
0001
0100
0010
0100
0010
0100
1000
1000
0010
0001
,
0110
0000
0000
0110
0000
0000
0011
0000
0120
0000
0030
1010
0000
0000
1100
0000
,
0010
0001
0000
0000
0000
0000
0100
0010
0000
0000
0000
0000
1000
0100
0000
0000
1001
0000
0000
0000
0000
0000
0110
0000
0000
0000
0000
0000
1001
0000
0000
0000
,
1001
0000
0101
0000
0001
0100
0010
0000
,
1000
0100
0010
0001
1000
0100
0010
0001
1000
0100
0010
0001
1000
0100
0010
0001
,
0100
0010
0000
0000
0000
0000
1000
0100
0000
0000
0000
0000
1000
0000
0000
0000
0002
0000
0000
0000
0000
0000
0000
0000
0000
0000
0000
0000
0003
0000
0000
0000
,
0100
0010
0001
0010
0000
0100
0000
0100
,
0100
0000
0010
0000
0100
0000
0002
0000
0000
0003
0010
0000
0000
0000
0100
0000
,
0010
0100
0001
0100
0001
0100
0001
0100
0010
0100
0001
0100
0001
0100
0001
0100
,
1000
0001
1000
0001
1000
0010
1000
0001
1000
0001
1000
0010
1000
0100
1000
0100
1000
0001
1000
0100
1000
0100
1000
0001
,
1000
0100
0010
0100
1000
0100
0010
0100
0010
0001
0010
0100
0010
0001
0010
0100
,
0010
0100
0010
1000
0100
0010
0001
0010
0100
0001
0010
0001
0100
0010
0100
1000
,
0100
0010
0001
0010
0001
0010
0100
1000
0100
0010
0100
0010
0001
0010
0001
0010
,
2020
0000
0000
0000
0000
0000
0000
3030
,
1001
0100
0010
0001
0010
0001
0100
0001
0010
0100
1000
0100
0001
0100
0010
0100
,
0001
1000
0010
0100
0001
0010
0100
1000
0100
0001
0010
0001
0100
0001
1000
0010
,
0100
0010
0001
0100
0010
0001
1000
0100
0010
1000
0100
0010
0100
0010
0001
0100
,
0010
0001
1000
0100
0010
1000
0100
0010
0001
0010
0100
1000
0100
0010
0100
0010
,
0001
0010
0100
0010
0001
1000
0100
1000
0010
0100
0010
0001
0010
0001
0010
0100
,
0010
1000
0100
1000
0100
0010
0100
0001
0010
0001
0100
0010
0001
0010
0100
0010
,
0100
0001
0010
0100
0010
0001
0010
0100
1000
0100
0010
0100
0010
0001
0010
0100
,
2000
3000
0200
0300
0020
0030
0002
0003
,
2200
0000
0000
0000
0000
0000
0000
3300
,
0202
0000
0000
0000
0000
0000
0000
0303
,
1000
0100
1000
0100
0001
0000
0010
0000
0100
1000
0100
1000
0010
0000
0001
0000
,
1001
1001
1001
1001
,
0011
0000
0110
0000
0001
0010
0100
0000
1001
0000
1001
0000
1000
0010
1000
0000
,
1100
0000
1100
0000
0010
1000
0010
0000
0110
0000
0110
0000
0001
0010
0001
0000
,
0101
0000
1001
0000
0010
1000
0010
0000
1001
0000
1010
0000
0100
1000
0100
0000
,
1010
0000
0101
0000
0001
0010
0100
0000
1000
0100
0010
0100
0010
0001
0010
0001
,
1010
0000
0110
0000
0001
0010
0001
0000
0110
0000
0011
0000
0010
1000
0010
0000
,
1100
0000
0101
0000
0100
0001
0100
0000
1001
0000
0101
0000
0100
0001
1000
0000
,
1010
0000
0011
0000
1000
0001
1000
0000
0011
0000
0110
0000
0001
0010
0100
0000
,
0001
1000
0001
1000
0001
0100
0010
1000
0001
0100
0001
0010
1000
0100
0010
0100
,
0001
0001
0100
0100
0010
0010
0001
0001
0100
0100
0010
0010
1000
1000
0100
0100
,
1000
1000
0001
0001
0100
0100
0010
0010
0100
0100
0001
0001
0010
0010
0000
0000
,
0001
0010
0100
0010
0001
0010
0001
0010
0100
0010
0001
0010
0001
0010
0100
0010
,
0001
0010
0100
0010
0100
1000
0100
0010
0001
0010
0100
1000
0100
0010
0100
1000
,
0220
0000
0000
0000
0000
0000
0000
0000
0000
0330
0000
0000
1010
0000
0000
0000
,
0101
0110
1010
0101
,
1100
0001
1100
0001
1100
0010
1100
0010
1100
0001
1100
0001
1100
0010
1100
0010
,
1100
0001
1100
0001
1100
0010
1100
0010
1100
0001
1100
0001
1100
0010
1100
0010
,
2200
0000
0000
0000
0000
0000
3300
0000
2200
0000
0000
0000
0000
0000
0000
0000
0000
0000
0000
0000
3300
0000
0000
0000
0000
0000
0000
0000
0001
0010
0100
1000
;
